Скачать через торрент Окончательный счёт Final Score Фильм бесплатно в хорошем качестве torrent

Скачивайте на UnionPeer.org фильмы через торрент без регистрации. Новинки кино в хорошем качестве через торрент. На UnionPeer.org можно скачать через торрент фильмы 2014 и 2015 годов. Самые новые фильмы.

Скачать торрент Окончательный счёт Final Score бесплатно через .torrent фильм мультфильм сериал

Статистика раздачи
Размер:  3.39 GB   |    Зарегистрирован:  6 дней   |    .torrent скачан:  59 раз   |   
Раздают:  1  
   
загрузка...
 
Автор Сообщение

Galfimbul

avatar Galfimbul


Название: Окончательный счёт
Final Score



[b]Год выхода:
2018
Страна: Великобритания
Студия: Signature Films,Drybake Final Score,Highland Film Group
Жанр: Боевик
Режиссер: Скотт Манн
В ролях: Дэйв Батиста, Пирс Броснан, Рэй Стивенсон, Мартин Форд, Ральф Браун, Виктория Брум, Люси Гаскелл, Крэйг Конуэй, Стелла Париж, Аарон МакКаскер



Во время террористической атаки племянница Майка затерялась где-то на футбольном стадионе, где они смотрели текущий матч. Ему придётся вспомнить все свои старые навыки, чтобы спасти девочку и предотвратить катастрофу.
Продолжительность: 01:44:44
Перевод: Профессиональный многоголосый | HDRezka Studio
Формат: MKV
Качество: BDRip 720p [Final.Score.2018.REMUX.BluRay.1080p.AVC.DTS-HD.MA5.1-iFT]
Видео: AVC/X264@4.1, 1280x536, 4000 kbps, 23.976 fps
Аудио 1: 48 kHz, AC3, 2.0, 192 Kbps | RUS |
Аудио 2: 48 kHz, AC3, 5.1, 448 Kbps | ENG |
Субтитры: Английские
Format : Matroska
Format version : Version 4 / Version 2
File size : 3.39 GiB
Duration : 1 h 44 min
Overall bit rate : 4 627 kb/s
Movie name : Encoder^qusi555^ Baku
Encoded date : UTC 2018-11-09 07:32:14
Writing application : mkvmerge v8.3.0 ('Over the Horizon') 64bit
Writing library : libebml v1.3.1 + libmatroska v1.4.2

Video
ID : 1
Format : AVC
Format/Info : Advanced Video Codec
Format profile : High@L4.1
Format settings, CABAC : Yes
Format settings, RefFrames : 12 frames
Codec ID : V_MPEG4/ISO/AVC
Duration : 1 h 44 min
Bit rate : 4 000 kb/s
Width : 1 280 pixels
Height : 536 pixels
Display aspect ratio : 2.40:1
Frame rate mode : Constant
Frame rate : 23.976 (24000/1001) FPS
Color space : YUV
Chroma subsampling : 4:2:0
Bit depth : 8 bits
Scan type : Progressive
Bits/(Pixel*Frame) : 0.243
Stream size : 2.92 GiB (86%)
Title : Encoder^qusi555^ Baku
Writing library : x264 core 157 r2935 545de2f
Encoding settings : cabac=1 / ref=12 / deblock=1:-3:-3 / analyse=0x3:0x113 / me=umh / subme=10 / psy=1 / psy_rd=1.05:0.00 / mixed_ref=1 / me_range=32 / chroma_me=1 / trellis=2 / 8x8dct=1 / cqm=0 / deadzone=21,11 / fast_pskip=0 / chroma_qp_offset=-4 / threads=8 / lookahead_threads=1 / sliced_threads=0 / nr=0 / decimate=0 / interlaced=0 / bluray_compat=0 / constrained_intra=0 / bframes=8 / b_pyramid=2 / b_adapt=2 / b_bias=0 / direct=3 / weightb=1 / open_gop=0 / weightp=2 / keyint=240 / keyint_min=23 / scenecut=40 / intra_refresh=0 / rc_lookahead=60 / rc=2pass / mbtree=0 / bitrate=4000 / ratetol=1.0 / qcomp=0.65 / qpmin=0 / qpmax=69 / qpstep=4 / cplxblur=20.0 / qblur=0.5 / vbv_maxrate=50000 / vbv_bufsize=62500 / nal_hrd=none / filler=0 / ip_ratio=1.30 / pb_ratio=1.20 / aq=3:0.80
Default : Yes
Forced : No
Audio #1
ID : 2
Format : AC-3
Format/Info : Audio Coding 3
Format settings, Endianness : Big
Codec ID : A_AC3
Duration : 1 h 43 min
Bit rate mode : Constant
Bit rate : 192 kb/s
Channel(s) : 2 channels
Channel positions : Front: L R
Sampling rate : 48.0 kHz
Frame rate : 31.250 FPS (1536 SPF)
Bit depth : 16 bits
Compression mode : Lossy
Stream size : 142 MiB (4%)
Title : Encoder^qusi555^ Baku
Language : Russian
Service kind : Complete Main
Default : Yes
Forced : No

Audio #2
ID : 3
Format : AC-3
Format/Info : Audio Coding 3
Format settings, Endianness : Big
Codec ID : A_AC3
Duration : 1 h 44 min
Bit rate mode : Constant
Bit rate : 448 kb/s
Channel(s) : 6 channels
Channel positions : Front: L C R, Side: L R, LFE
Sampling rate : 48.0 kHz
Frame rate : 31.250 FPS (1536 SPF)
Bit depth : 16 bits
Compression mode : Lossy
Stream size : 336 MiB (10%)
Title : Encoder^qusi555^ Baku
Language : English
Service kind : Complete Main
Default : No
Forced : No

Text
ID : 4
Format : UTF-8
Codec ID : S_TEXT/UTF8
Codec ID/Info : UTF-8 Plain Text
Duration : 1 h 40 min
Bit rate : 66 b/s
Count of elements : 1781
Stream size : 48.6 KiB (0%)
Title : Encoder^qusi555^ Baku
Language : English
Default : No
Forced : No
-[Information] [8.11.2018 22:31:26] y4m [info]: 1280x536p 1:1 @ 24000/1001 fps (cfr)
-[Information] [8.11.2018 22:31:26] x264 [info]: using SAR=1/1
-[Information] [8.11.2018 22:31:26] x264 [info]: using cpu capabilities: MMX2 SSE2Fast SSSE3 SSE4.2 AVX FMA3 BMI2 AVX2
-[Information] [8.11.2018 22:31:26] x264 [info]: profile High, level 4.1, 4:2:0, 8-bit
-[Information] [9.11.2018 02:17:27] x264 [info]: frame I:1297 Avg QP:15.04 size: 90781
-[Information] [9.11.2018 02:17:27] x264 [info]: frame P:40438 Avg QP:17.63 size: 34595
-[Information] [9.11.2018 02:17:27] x264 [info]: frame B:108938 Avg QP:18.35 size: 14831
-[Information] [9.11.2018 02:17:27] x264 [info]: consecutive B-frames: 5.5% 5.6% 12.9% 26.3% 16.2% 24.8% 5.2% 1.9% 1.7%
-[Information] [9.11.2018 02:17:27] x264 [info]: mb I I16..4: 9.1% 75.6% 15.3%
-[Information] [9.11.2018 02:17:27] x264 [info]: mb P I16..4: 3.8% 15.7% 2.1% P16..4: 37.3% 23.9% 11.7% 0.0% 0.0% skip: 5.6%
-[Information] [9.11.2018 02:17:27] x264 [info]: mb B I16..4: 0.5% 1.1% 0.2% B16..8: 40.3% 14.3% 3.9% direct:10.8% skip:29.0% L0:47.0% L1:41.5% BI:11.6%
-[Information] [9.11.2018 02:17:27] x264 [info]: 8x8 transform intra:71.7% inter:67.5%
-[Information] [9.11.2018 02:17:27] x264 [info]: direct mvs spatial:97.8% temporal:2.2%
-[Information] [9.11.2018 02:17:27] x264 [info]: coded y,uvDC,uvAC intra: 72.1% 87.7% 75.0% inter: 29.7% 47.1% 29.4%
-[Information] [9.11.2018 02:17:27] x264 [info]: i16 v,h,dc,p: 44% 13% 8% 35%
-[Information] [9.11.2018 02:17:27] x264 [info]: i8 v,h,dc,ddl,ddr,vr,hd,vl,hu: 12% 9% 8% 9% 13% 13% 13% 11% 12%
-[Information] [9.11.2018 02:17:27] x264 [info]: i4 v,h,dc,ddl,ddr,vr,hd,vl,hu: 11% 8% 5% 10% 16% 14% 14% 11% 12%
-[Information] [9.11.2018 02:17:27] x264 [info]: i8c dc,h,v,p: 47% 19% 17% 17%
-[Information] [9.11.2018 02:17:27] x264 [info]: Weighted P-Frames: Y:4.1% UV:2.6%
-[Information] [9.11.2018 02:17:27] x264 [info]: ref P L0: 47.4% 9.4% 16.2% 7.0% 5.4% 3.6% 3.3% 1.9% 1.8% 1.4% 1.3% 1.1% 0.2% 0.0%
-[Information] [9.11.2018 02:17:27] x264 [info]: ref B L0: 69.3% 12.4% 6.2% 3.5% 2.5% 1.9% 1.5% 1.0% 0.9% 0.6% 0.2%
-[Information] [9.11.2018 02:17:27] x264 [info]: ref B L1: 94.5% 5.5%
-[Information] [9.11.2018 02:17:27] x264 [info]: kb/s:3987.44
-[Information] [9.11.2018 02:17:27] encoded 150673 frames, 11.11 fps, 3987.44 kb/s
Источник http://BlaTor.org

Трекер:  [ 09-Ноя-2018 17:20 ]

  

Скачать .torrent

Размер .torrent файла 17 KB


Размер: 3.39 GB
Хэш (hash) релиза: 43f26b786a7552fa124bf2d006373658d6fced5f
Подписка на обновления:

Торренты, похожие на Окончательный счёт Final Score скачать торрент

Форум Название Автор Размер S L Добавлен
Зарубежные фильмы 2016-2018 (Новинки зарубежного кино) ·%· Окончательный счёт / Final Score (2018) HDRip от Kaztorrents | КПК | iTunes Galfimbul 415436643396 MB 0 0 1542018012

13:20

12-Ноя-18

Зарубежные фильмы 2016-2018 (Новинки зарубежного кино) ·%· Окончательный счёт / Final Score (2018) BDRip-AVC от OlLanDGroup | HDRezka Studio Galfimbul 15652998851.46 GB 0 0 1541951452

18:50

11-Ноя-18

Зарубежные фильмы 2016-2018 (Новинки зарубежного кино) ·%· Окончательный счёт / Final Score (2018) HDRip от Portablius | HDRezka Studio Galfimbul 782010368746 MB 0 0 1541887863

01:11

11-Ноя-18

Зарубежные фильмы 2016-2018 (Новинки зарубежного кино) ·%· Окончательный счёт / Final Score (2018) BDRip 720p от k.e.n & MegaPeer | HDRezka Studio Galfimbul 39992306333.72 GB 0 0 1541762424

14:20

9-Ноя-18

Зарубежные фильмы 2016-2018 (Новинки зарубежного кино) ·%· Окончательный счёт / Final Score (2018) BDRemux 1080p от селезень | HDRezka Studio Galfimbul 2066291094419.24 GB 0 0 1541604084

18:21

7-Ноя-18

Зарубежные фильмы 2016-2018 (Новинки зарубежного кино) ·%· Окончательный счёт / Final Score (2018) WEB-DLRip от MegaPeer | HDRezka Studio Galfimbul 781597526745 MB 0 0 1538498476

19:41

2-Окт-18

Зарубежные фильмы 2016-2018 (Новинки зарубежного кино) ·%· Окончательный счёт / Final Score (2018) WEB-DLRip-AVC от ExKinoRay | HDRezka Studio Galfimbul 20299193601.89 GB 0 0 1537887128

17:52

25-Сен-18

Зарубежные фильмы 2016-2018 (Новинки зарубежного кино) ·%· Окончательный счёт / Final Score (2018) WEB-DLRip от Dalemake | HDrezka Studio Galfimbul 15702118401.46 GB 0 0 1537865448

11:50

25-Сен-18

Зарубежные фильмы 2016-2018 (Новинки зарубежного кино) ·%· Окончательный счёт / Final Score (2018) WEB-DL 1080p от селезень | HDRezka Studio Galfimbul 59362635695.53 GB 0 0 1537844415

06:00

25-Сен-18

Еще никто не оставлял запись к записи скачать торрент Окончательный счёт Final Score . Будь первым!

!Обратная связь