Скачать через торрент Основано на реальных событиях D'apr?s une histoire vraie Фильм бесплатно в хорошем качестве torrent

Скачивайте на UnionPeer.org фильмы через торрент без регистрации. Новинки кино в хорошем качестве через торрент. На UnionPeer.org можно скачать через торрент фильмы 2014 и 2015 годов. Самые новые фильмы.

Скачать торрент Основано на реальных событиях D'apr?s une histoire vraie бесплатно через .torrent фильм мультфильм сериал

Статистика раздачи
Размер:  6.28 GB   |    Зарегистрирован:  6 дней   |    .torrent скачан:  39 раз   |   
Раздают:  1  
   
загрузка...
 
Автор Сообщение

Galfimbul

avatar Galfimbul


Основано на реальных событиях / D'apr?s une histoire vraie

Год выпуска: 2017
Жанр: Триллер, драма, детектив
Режиссер: Роман Полански
В ролях: Эмманюэль Сенье, Ева Грин, Венсан Перес, Доминик Пинон, Камиль Шаму, Брижит Роюан, Жозе Дайан, Ноэми Львовски, Леонелло Брандолини, Элизабет Куин

О фильме:
Молодую писательницу одолевает депрессия, пришедшая в её жизнь с первым громким профессиональным успехом. В это время происходит встреча с почитательницей её таланта, загадочной L. Девушки сближаются: писательница получает необходимую ей поддержку, а L тем временем всё глубже проникает в жизнь своего кумира.



Страна: Франция, Польша, Бельгия
Студия: Belga Productions, Canal+ [fr], Cin?, France T?l?visions
Продолжительность: 01:41:05
Перевод: Дублированный [iTunes]

Файл
Кодек: MPEG-4 AVC
Качество: BDRip 720p
Видео: 8500 Кбит/с, 1280x534
Звук: Русский (AC3, 6 ch, 384 Кбит/с)

Инфо-файл
General
Unique ID : 75468773669469555556856492843262630065 (0x38C6C1D1CE19A213699C64AAAA6558B1)
Complete name : D:Основано на реальных событиях.2017.BDRip (720p).mkv
Format : Matroska
Format version : Version 4
File size : 6.28 GiB
Duration : 1 h 41 min
Overall bit rate : 8 889 kb/s
Movie name : D'apr?s une Histoire Vraie 2017 from селезень
Writing application : XviD4PSP 7.0.458 DAILY
Writing library : Lavf57.71.100
Cover : Yes
ErrorDetectionType : Per level 1
Attachments : cover.jpg
ENCODING_INFO : MATROSKA,WEBM > MKV / H264 > X264 VBR-2P 8500kbps HQ / AC3 > AC3 CBR 384kbps
Language : und

Video
ID : 1
Format : AVC
Format/Info : Advanced Video Codec
Format profile : High@L3.1
Format settings : CABAC / 4 Ref Frames
Format settings, CABAC : Yes
Format settings, ReFrames : 4 frames
Codec ID : V_MPEG4/ISO/AVC
Duration : 1 h 41 min
Bit rate : 8 500 kb/s
Width : 1 280 pixels
Height : 534 pixels
Display aspect ratio : 2.40:1
Frame rate mode : Constant
Frame rate : 24.000 FPS
Color space : YUV
Chroma subsampling : 4:2:0
Bit depth : 8 bits
Scan type : Progressive
Bits/(Pixel*Frame) : 0.518
Stream size : 5.88 GiB (94%)
Writing library : x264 core 157 r2901M 7d0ff22
Encoding settings : cabac=1 / ref=3 / deblock=1:-1:-1 / analyse=0x3:0x133 / me=hex / subme=7 / psy=1 / psy_rd=1.00:0.20 / mixed_ref=1 / me_range=16 / chroma_me=1 / trellis=1 / 8x8dct=1 / cqm=0 / deadzone=21,11 / fast_pskip=1 / chroma_qp_offset=-3 / threads=5 / lookahead_threads=1 / sliced_threads=0 / nr=0 / decimate=1 / interlaced=0 / bluray_compat=0 / constrained_intra=0 / bframes=3 / b_pyramid=2 / b_adapt=2 / b_bias=0 / direct=3 / weightb=1 / open_gop=0 / weightp=2 / keyint=240 / keyint_min=24 / scenecut=40 / intra_refresh=0 / rc_lookahead=40 / rc=2pass / mbtree=1 / bitrate=8500 / ratetol=1.0 / qcomp=0.60 / qpmin=0 / qpmax=69 / qpstep=4 / cplxblur=20.0 / qblur=0.5 / ip_ratio=1.40 / aq=1:1.00
Language : French
Default : Yes
Forced : No
Color range : Limited
Color primaries : BT.709
Transfer characteristics : BT.709
Matrix coefficients : BT.709

Audio
ID : 2
Format : AC-3
Format/Info : Audio Coding 3
Commercial name : Dolby Digital
Codec ID : A_AC3
Duration : 1 h 41 min
Bit rate mode : Constant
Bit rate : 384 kb/s
Channel(s) : 6 channels
Channel layout : L R C LFE Ls Rs
Sampling rate : 48.0 kHz
Frame rate : 31.250 FPS (1536 SPF)
Bit depth : 16 bits
Compression mode : Lossy
Stream size : 278 MiB (4%)
Title : iTunes
Language : Russian
Service kind : Complete Main
Default : Yes
Forced : Yes
Источник http://BlaTor.org

Трекер:  [ 09-Ноя-2018 13:50 ]

  

Скачать .torrent

Размер .torrent файла 32 KB


Размер: 6.28 GB
Хэш (hash) релиза: 5f2dae7a33f0f352793e146e19a8055659888d61
Подписка на обновления:

Торренты, похожие на Основано на реальных событиях D'apr?s une histoire vraie скачать торрент

Форум Название Автор Размер S L Добавлен
Зарубежные фильмы 2016-2018 (Новинки зарубежного кино) ·%· Основано на реальных событиях / D'apr?s une histoire vraie (2017) HDRip от Scarabey | iTunes Galfimbul 15032115201.4 GB 0 0 1541970641

00:10

12-Ноя-18

Зарубежные фильмы 2016-2018 (Новинки зарубежного кино) ·%· Основано на реальных событиях / D'apr?s une histoire vraie (2017) BDRip-AVC от OlLanDGroup | iTunes Galfimbul 16892700261.57 GB 0 0 1541793652

23:00

9-Ноя-18

Зарубежные фильмы 2016-2018 (Новинки зарубежного кино) ·%· Основано на реальных событиях / D'apr?s une histoire vraie (2017) BDRip | iTunes Galfimbul 18406224011.71 GB 0 0 1541719834

02:30

9-Ноя-18

Зарубежные фильмы 2016-2018 (Новинки зарубежного кино) ·%· Основано на реальных событиях / D'apr?s une histoire vraie (2017) BDRip 1080p от селезень | iTunes Galfimbul 97820143119.11 GB 0 0 1541682072

16:01

8-Ноя-18

Зарубежные фильмы 2016-2018 (Новинки зарубежного кино) ·%· Основано на реальных событиях / D'apr?s une histoire vraie (2017) BDRemux 1080p от селезень | iTunes Galfimbul 2180732223120.31 GB 0 0 1541643611

05:20

8-Ноя-18

Зарубежные фильмы 2016-2018 (Новинки зарубежного кино) ·%· Основано на реальных событиях / D'apr?s une histoire vraie (2017) BDRip от MegaPeer | iTunes Galfimbul 15188172801.41 GB 0 0 1541630412

01:40

8-Ноя-18

Зарубежные фильмы 2016-2018 (Новинки зарубежного кино) ·%· Основано на реальных событиях / D'apr?s une histoire vraie (2017) WEBRip 1080p | GreenРай Studio Galfimbul 34454177573.21 GB 0 0 1536085983

21:33

4-Сен-18

Зарубежные фильмы 2016-2018 (Новинки зарубежного кино) ·%· Основано на реальных событиях / D'apr?s une histoire vraie (2017) WEBRip | GreenРай Studio Galfimbul 14730917081.37 GB 0 0 1536085969

21:32

4-Сен-18

Зарубежные фильмы 2016-2018 (Новинки зарубежного кино) ·%· Основано на реальных событиях / D'apr?s une histoire vraie (2017) WEB-DL 1080p | Sub Galfimbul 35809245583.33 GB 0 0 1536058808

14:00

4-Сен-18

Зарубежные фильмы 2016-2018 (Новинки зарубежного кино) ·%· Основано на реальных событиях / D'apr?s une histoire vraie (2017) WEB-DLRip | Sub Galfimbul 15644187531.46 GB 0 0 1535559041

19:10

29-Авг-18

Еще никто не оставлял запись к записи скачать торрент Основано на реальных событиях D'apr?s une histoire vraie . Будь первым!

!Обратная связь