Скачать через торрент Полиция Парадайза Paradise PD Фильм бесплатно в хорошем качестве torrent

Скачивайте на UnionPeer.org фильмы через торрент без регистрации. Новинки кино в хорошем качестве через торрент. На UnionPeer.org можно скачать через торрент фильмы 2014 и 2015 годов. Самые новые фильмы.

Скачать торрент Полиция Парадайза Paradise PD бесплатно через .torrent фильм мультфильм сериал

Статистика раздачи
Размер:  3.03 GB   |    Зарегистрирован:  2 месяца 12 дней   |    .torrent скачан:  79 раз   |   
Раздают:  1  
   
загрузка...
 
Автор Сообщение

Galfimbul

avatar Galfimbul


Полиция Парадайза /Paradise PD

Год выхода: 2018
Жанр: мультфильм, комедия
Режиссер: Вако Оджин, Роджер Блэк
В ролях: Дэна Снайдер, Седрик Ярбро, Дэвид Херман, Том Кенни, Сара Чок, Кайл Кинан и др.

О фильме:
В мультипликационной чёрной комедии речь пойдёт о полицейском управлении крохотного городка Парадайз. Главные герои — очень плохие копы. Не в том смысле, что они все из себя опасные и крутые. Нет, они в буквальном смысле откровенно дерьмовые полицейские.


Страна: США
Продолжительность: ~ 00:30:00 серия
Перевод: Любительский (многоголосый закадровый) | OMSKBIRD

Файл
Кодек: Xvid
Качество: WEBRip
Видео: AVI, 720x400 (16:9), 23.976 fps, ~ 1800 kbps
Звук: Аудио rus: AC-3, 48 KHz, 2 ch, 192 kbps | OMSKBIRD records

Семпл

Присутствует реклама!
Внимание! Присутствует нецензурная лексика!
General
Complete name : H:Мои ДокументыВидеоРАЗДАЧИПЭРАДАЙЗParadise PD S01 WEBRip (OMSKBIRD)Paradise PD S01E01 WEBRip (OMSKBIRD).avi
Format : AVI
Format/Info : Audio Video Interleave
File size : 337 MiB
Duration : 29 min 14 s
Overall bit rate : 1 610 kb/s
Writing application : VirtualDubMod 1.5.10.3 | www.virtualdub-fr.org || (build 2550/release)
Writing library : VirtualDubMod build 2550/release

Video
ID : 0
Format : MPEG-4 Visual
Format profile : Advanced Simple@L5
Format settings, BVOP : 1
Format settings, QPel : No
Format settings, GMC : No warppoints
Format settings, Matrix : Default (H.263)
Codec ID : XVID
Codec ID/Hint : XviD
Duration : 29 min 14 s
Bit rate : 1 408 kb/s
Width : 720 pixels
Height : 400 pixels
Display aspect ratio : 16:9
Frame rate : 23.976 (24000/1001) FPS
Color space : YUV
Chroma subsampling : 4:2:0
Bit depth : 8 bits
Scan type : Progressive
Compression mode : Lossy
Bits/(Pixel*Frame) : 0.204
Stream size : 294 MiB (87%)
Writing library : XviD 67

Audio
ID : 1
Format : AC-3
Format/Info : Audio Coding 3
Format settings, Endianness : Big
Codec ID : 2000
Duration : 29 min 14 s
Bit rate mode : Constant
Bit rate : 192 kb/s
Channel(s) : 2 channels
Channel positions : Front: L R
Sampling rate : 48.0 kHz
Frame rate : 31.250 FPS (1536 SPF)
Bit depth : 16 bits
Compression mode : Lossy
Stream size : 40.2 MiB (12%)
Alignment : Split accross interleaves
Interleave, duration : 42 ms (1.00 video frame)
Interleave, preload duratio : 500 ms
Service kind : Complete Main
Источник http://BlaTor.org

Трекер:  [ 04-Сен-2018 15:50 ]

  

Скачать .torrent

Размер .torrent файла 16 KB


Размер: 3.03 GB
Хэш (hash) релиза: cd4ea3e77bdce3327933aea23f8618abe3ffefa4
Подписка на обновления:

Торренты, похожие на Полиция Парадайза Paradise PD скачать торрент

Форум Название Автор Размер S L Добавлен
Мультфильмы 2016-2018 (Новинки мультфильмов) ·%· Полиция Парадайз / Paradise PD [S01] (2018) WEBRip 1080p | LakeFilms Galfimbul 1587436340914.78 GB 0 0 1540359699

08:41

24-Окт-18

Мультфильмы 2016-2018 (Новинки мультфильмов) ·%· Полиция Парадайз / Paradise PD [S01] (2018) WEBRip | LakeFilms Galfimbul 41236034663.84 GB 0 0 1540359351

08:35

24-Окт-18

Мультфильмы 2016-2018 (Новинки мультфильмов) ·%· Полиция Парадайз / Paradise PD [S01] (2018) WEBRip 720p | LakeFilms Galfimbul 77040880397.17 GB 0 0 1540359340

08:35

24-Окт-18

Мультфильмы 2016-2018 (Новинки мультфильмов) ·%· Полиция Парадайза / Paradise PD [S01] (2018) WEBRip 720p | SunshineStudio Galfimbul 25705218012.39 GB 0 0 1536656420

12:00

11-Сен-18

Мультфильмы 2016-2018 (Новинки мультфильмов) ·%· Полиция Парадайз / Paradise PD [01x01-05 из 10] (2018) WEBRip 720p | RusFilm Galfimbul 27653145442.58 GB 0 0 1536470518

08:21

9-Сен-18

Мультфильмы 2016-2018 (Новинки мультфильмов) ·%· Полиция Парадайза / Paradise PD [01x01-03 из 10] (2018) WEBRip 720p | NewStudio Galfimbul 14007967191.3 GB 0 0 1536107412

03:30

5-Сен-18

Мультфильмы 2016-2018 (Новинки мультфильмов) ·%· Полиция Парадайза / Paradise PD [S01] (2018) WEBRip | ColdFilm Galfimbul 35968239263.35 GB 0 0 1536065460

15:51

4-Сен-18

Мультфильмы 2016-2018 (Новинки мультфильмов) ·%· Полиция Парадайза / Paradise PD [S01] (2018) WEBRip 720p | ColdFilm Galfimbul 74138079406.9 GB 0 0 1536065450

15:50

4-Сен-18

Мультфильмы 2016-2018 (Новинки мультфильмов) ·%· Полиция Парадайза / Paradise PD [S01] (2018) WEBRip 720p | OMSKBIRD Galfimbul 64465811426 GB 0 0 1536065431

15:50

4-Сен-18

Мультфильмы 2016-2018 (Новинки мультфильмов) ·%· Полиция Парадайза / Paradise PD [S01] (2018) WEB-DLRip | Gears Media Galfimbul 30616393082.85 GB 0 0 1536064223

15:30

4-Сен-18

Мультфильмы 2016-2018 (Новинки мультфильмов) ·%· Полиция Парадайза / Paradise PD [S01] (2018) WEB-DL 720p | Gears Media Galfimbul 35584249593.31 GB 0 0 1536063020

15:10

4-Сен-18

Еще никто не оставлял запись к записи скачать торрент Полиция Парадайза Paradise PD . Будь первым!

!Обратная связь