Скачать через торрент Полиция Парадайза Paradise PD Фильм бесплатно в хорошем качестве torrent

Скачивайте на UnionPeer.org фильмы через торрент без регистрации. Новинки кино в хорошем качестве через торрент. На UnionPeer.org можно скачать через торрент фильмы 2014 и 2015 годов. Самые новые фильмы.

Скачать торрент Полиция Парадайза Paradise PD бесплатно через .torrent фильм мультфильм сериал

Статистика раздачи
Размер:  6 GB   |    Зарегистрирован:  2 месяца 12 дней   |    .torrent скачан:  79 раз   |   
Раздают:  1  
   
загрузка...
 
Автор Сообщение

Galfimbul

avatar Galfimbul


Полиция Парадайза /Paradise PD

Год выхода: 2018
Жанр: мультфильм, комедия
Режиссер: Вако Оджин, Роджер Блэк
В ролях: Дэна Снайдер, Седрик Ярбро, Дэвид Херман, Том Кенни, Сара Чок, Кайл Кинан и др.

О фильме:
В мультипликационной чёрной комедии речь пойдёт о полицейском управлении крохотного городка Парадайз. Главные герои — очень плохие копы. Не в том смысле, что они все из себя опасные и крутые. Нет, они в буквальном смысле откровенно дерьмовые полицейские.


Страна: США
Продолжительность: ~ 00:30:00 серия
Перевод: Любительский (многоголосый закадровый) | OMSKBIRD

Файл
Кодек: MPEG-4 AVC
Качество: WEBRip 720p
Видео: AVC, 1280x720 (16:9), 23.976 fps, ~ 3000 kbps
Звук: Аудио rus: AC-3, 48 KHz, 2 ch, 192 kbps | OMSKBIRD records

Семпл

Присутствует реклама!
Внимание! Присутствует нецензурная лексика!
General
Unique ID : 229914231983976178034476425071064015446 (0xACF7DED2A83C52808B3866BD61646256)
Complete name : H:Мои ДокументыВидеоРАЗДАЧИПЭРАДАЙЗParadise PD S01 WEBRip 720p (OMSKBIRD)Paradise PD S01E01 WEBRip 720p (OMSKBIRD).mkv
Format : Matroska
Format version : Version 2
File size : 648 MiB
Duration : 29 min 15 s
Overall bit rate : 3 095 kb/s
Encoded date : UTC 2018-09-01 12:29:56
Writing application : mkvmerge v4.0.0 ('The Stars were mine') сборка от Jun 6 2010 16:18:42
Writing library : libebml v1.0.0 + libmatroska v1.0.0

Video
ID : 1
Format : AVC
Format/Info : Advanced Video Codec
Format profile : Main@L4.1
Format settings, CABAC : Yes
Format settings, RefFrames : 3 frames
Codec ID : V_MPEG4/ISO/AVC
Duration : 29 min 15 s
Bit rate : 2 842 kb/s
Width : 1 280 pixels
Height : 720 pixels
Display aspect ratio : 16:9
Frame rate mode : Constant
Frame rate : 23.976 (24000/1001) FPS
Standard : NTSC
Color space : YUV
Chroma subsampling : 4:2:0
Bit depth : 8 bits
Scan type : Progressive
Bits/(Pixel*Frame) : 0.129
Stream size : 594 MiB (92%)
Language : English
Default : Yes
Forced : No
Color range : Limited
Color primaries : BT.709
Transfer characteristics : BT.709
Matrix coefficients : BT.709

Audio
ID : 2
Format : AC-3
Format/Info : Audio Coding 3
Format settings, Endianness : Big
Codec ID : A_AC3
Duration : 29 min 15 s
Bit rate mode : Constant
Bit rate : 192 kb/s
Channel(s) : 2 channels
Channel positions : Front: L R
Sampling rate : 48.0 kHz
Frame rate : 31.250 FPS (1536 SPF)
Bit depth : 16 bits
Compression mode : Lossy
Stream size : 40.2 MiB (6%)
Service kind : Complete Main
Default : Yes
Forced : No
Источник http://BlaTor.org

Трекер:  [ 04-Сен-2018 15:50 ]

  

Скачать .torrent

Размер .torrent файла 16 KB


Размер: 6 GB
Хэш (hash) релиза: b7d216cea2003d7ad983d0daec49921b617c7b6c
Подписка на обновления:

Торренты, похожие на Полиция Парадайза Paradise PD скачать торрент

Форум Название Автор Размер S L Добавлен
Мультфильмы 2016-2018 (Новинки мультфильмов) ·%· Полиция Парадайз / Paradise PD [S01] (2018) WEBRip 1080p | LakeFilms Galfimbul 1587436340914.78 GB 0 0 1540359699

08:41

24-Окт-18

Мультфильмы 2016-2018 (Новинки мультфильмов) ·%· Полиция Парадайз / Paradise PD [S01] (2018) WEBRip | LakeFilms Galfimbul 41236034663.84 GB 0 0 1540359351

08:35

24-Окт-18

Мультфильмы 2016-2018 (Новинки мультфильмов) ·%· Полиция Парадайз / Paradise PD [S01] (2018) WEBRip 720p | LakeFilms Galfimbul 77040880397.17 GB 0 0 1540359340

08:35

24-Окт-18

Мультфильмы 2016-2018 (Новинки мультфильмов) ·%· Полиция Парадайза / Paradise PD [S01] (2018) WEBRip 720p | SunshineStudio Galfimbul 25705218012.39 GB 0 0 1536656420

12:00

11-Сен-18

Мультфильмы 2016-2018 (Новинки мультфильмов) ·%· Полиция Парадайз / Paradise PD [01x01-05 из 10] (2018) WEBRip 720p | RusFilm Galfimbul 27653145442.58 GB 0 0 1536470518

08:21

9-Сен-18

Мультфильмы 2016-2018 (Новинки мультфильмов) ·%· Полиция Парадайза / Paradise PD [01x01-03 из 10] (2018) WEBRip 720p | NewStudio Galfimbul 14007967191.3 GB 0 0 1536107412

03:30

5-Сен-18

Мультфильмы 2016-2018 (Новинки мультфильмов) ·%· Полиция Парадайза / Paradise PD [S01] (2018) WEBRip | ColdFilm Galfimbul 35968239263.35 GB 0 0 1536065460

15:51

4-Сен-18

Мультфильмы 2016-2018 (Новинки мультфильмов) ·%· Полиция Парадайза / Paradise PD [S01] (2018) WEBRip 720p | ColdFilm Galfimbul 74138079406.9 GB 0 0 1536065450

15:50

4-Сен-18

Мультфильмы 2016-2018 (Новинки мультфильмов) ·%· Полиция Парадайза / Paradise PD [S01] (2018) WEBRip | OMSKBIRD Galfimbul 32573296643.03 GB 0 0 1536065441

15:50

4-Сен-18

Мультфильмы 2016-2018 (Новинки мультфильмов) ·%· Полиция Парадайза / Paradise PD [S01] (2018) WEB-DLRip | Gears Media Galfimbul 30616393082.85 GB 0 0 1536064223

15:30

4-Сен-18

Мультфильмы 2016-2018 (Новинки мультфильмов) ·%· Полиция Парадайза / Paradise PD [S01] (2018) WEB-DL 720p | Gears Media Galfimbul 35584249593.31 GB 0 0 1536063020

15:10

4-Сен-18

Еще никто не оставлял запись к записи скачать торрент Полиция Парадайза Paradise PD . Будь первым!

!Обратная связь